katalys.fr
» » Rupert Holmes - Partners In Crime

Rupert Holmes - Partners In Crime FLAC Album

Tracklist

1Lunch Hour4:38
2Nearsighted2:49
3Him4:04
4Answering Machine
Backing Vocals – Chrissy Faith
3:33
5Drop It4:10
6Partners In Crime5:14
7In You I Trust4:49
8The People That You Never Get To Love3:46
9Escape (The Pina Colada Song)
Drums [Double] – Leo Adamian, Steve Jordan
4:34
10Get Outta Yourself
Voice [Trumpet] – Bob Gurland
4:43

Versions

CategoryArtistTitle (Format)LabelCategoryCountryYear
INF 9020Rupert Holmes Partners In Crime ‎(LP, Album)Infinity Records INF 9020US1979
304.0071Rupert Holmes Partners In Crime ‎(LP, Album)Infinity Records 304.0071Brazil1980
INFC 9020Rupert Holmes Partners In Crime ‎(Cass)Infinity Records INFC 9020US1979
VIP-6705Rupert Holmes Partners In Crime ‎(LP, Album, Promo)Infinity Records VIP-6705Japan1979
INF 9020Rupert Holmes Partners In Crime ‎(LP, Album)MCA Records, Infinity Records Inc.INF 9020Australia1979

Credits

  • Art Direction, Design Concept [Cover], DesignPeter Corriston
  • Bass TromboneDave Taylor
  • DrumsLeo Adamian
  • Electric BassFrank Gravis
  • Engineer [Associate]Eric Bloch, Ollie Cotton
  • Engineer, Mixed ByJim Boyer
  • Executive-Producer, Other [Creative Supervision]Normand Kurtz
  • French HornPeter Gordon
  • GuitarDean Bailin
  • Guitar, SoloistDean Bailin (tracks: 3 to 5, 10)
  • Mastered ByTed Jensen
  • PercussionVictoria
  • Photography ByBrian Hagiwara
  • ProducerJim Boyer, Rupert Holmes
  • StringsThe Gene Orloff Section
  • TromboneWayne Andre
  • Vocals, Keyboards, Saxophone, SynthesizerRupert Holmes
  • Written-By, Arranged ByRupert Holmes

Notes

AAD
Produced for the Holmes Line Of Records.
℗ © 1979 MCA Records, Inc., U.S.A.
Distributed by Uni Distribution Corp.

Barcodes

  • Barcode: 0 08811 08412 7

Video

Rupert Holmes - Partners In Crime FLAC Album
Performer:
Rupert Holmes
Title:
Partners In Crime
Genre:
FLAC size:
2472 mb
MP3 size:
1516 mb
WMA size:
2136 mb
Country:
US
Released:
12 Oct 1993
Label:
MCA Records
Style:
Soft Rock, Pop Rock
Rating:
4.8
Catalog №:
MCAD-10841, MCAD 10841
krot
foobar2000 1.3.17 / Dynamic Range Meter 1.1.1
log date: 2018-02-11 18:56:22

--------------------------------------------------------------------------------
Analyzed: Rupert Holmes / Partners In Crime
--------------------------------------------------------------------------------

DR Peak RMS Duration Track
--------------------------------------------------------------------------------
DR15 -0.78 dB -19.53 dB 4:37 01-Escape (The Pina Colada Song)
DR15 -2.49 dB -20.46 dB 5:17 02-Partners In Crime
DR12 -1.20 dB -18.64 dB 2:52 03-Nearsighted
DR14 -2.25 dB -18.98 dB 4:40 04-Lunch Hour
DR16 -2.31 dB -21.47 dB 4:12 05-Drop It
DR14 -1.14 dB -18.43 dB 4:06 06-Him
DR14 -0.61 dB -19.80 dB 3:35 07-Answering Machine
DR14 -3.44 dB -21.24 dB 3:48 08-The People You Never Get To Love
DR15 -2.33 dB -20.21 dB 4:46 09-Get Outta Yourself
DR14 -2.41 dB -18.72 dB 4:50 10-In You I Trust
--------------------------------------------------------------------------------

Number of tracks: 10
Official DR value: DR14

Samplerate: 44100 Hz
Channels: 2
Bits per sample: 16
Bitrate: 814 kbps
Codec: ALAC
================================================================================
© 2018-2020 Copyrights
All rights reserved. katalys.fr | Privacy Policy | DMCA | Contacts